#TITLE:The Llama Song;
#SUBTITLE:;
#ARTIST:Burton Earny;
#TITLETRANSLIT:;
#SUBTITLETRANSLIT:;
#ARTISTTRANSLIT:;
#CREDIT:;
#BANNER:1.bmp;
#BACKGROUND:The Llama Song-bg.PNG;
#LYRICSPATH:;
#CDTITLE:;
#MUSIC:The Llama Song.mp3;
#OFFSET:0.680;
#SAMPLESTART:23.650;
#SAMPLELENGTH:12.000;
#SELECTABLE:YES;
#BPMS:0.000=191.720,4.000=198.320,5.000=194.680,16.000=191.720,67.000=194.360,68.000=191.720;
#STOPS:;
#BGCHANGES:4.000=1.bmp=1.000=0=0=1,
6.000=2.bmp=1.000=0=0=1,
8.000=3.bmp=1.000=0=0=1,
12.000=4.bmp=1.000=0=0=1,
14.000=5.bmp=1.000=0=0=1,
16.000=6.bmp=1.000=0=0=1,
17.000=7.bmp=1.000=0=0=1,
18.000=8.bmp=1.000=0=0=1,
20.000=9.bmp=1.000=0=0=1,
21.000=10.bmp=1.000=0=0=1,
22.000=11.bmp=1.000=0=0=1,
23.000=12.bmp=1.000=0=0=1,
24.000=13.bmp=1.000=0=0=1,
25.000=14.bmp=1.000=0=0=1,
26.000=15.bmp=1.000=0=0=1,
27.000=16.bmp=1.000=0=0=1,
28.000=17.bmp=1.000=0=0=1,
29.000=18.bmp=1.000=0=0=1,
30.000=19.bmp=1.000=0=0=1,
31.000=20.bmp=1.000=0=0=1,
32.000=21.bmp=1.000=0=0=1,
33.000=22.bmp=1.000=0=0=1,
34.000=23.bmp=1.000=0=0=1,
36.000=24.bmp=1.000=0=0=1,
40.000=25.bmp=1.000=0=0=1,
44.000=26.bmp=1.000=0=0=1,
48.000=27.bmp=1.000=0=0=1,
50.000=28.bmp=1.000=0=0=1,
52.000=29.bmp=1.000=0=0=1,
56.000=30.bmp=1.000=0=0=1,
60.000=31.bmp=1.000=0=0=1,
64.000=32.bmp=1.000=0=0=1,
68.000=33.bmp=1.000=0=0=1,
70.000=34.bmp=1.000=0=0=1,
72.000=35.bmp=1.000=0=0=1,
74.000=36.bmp=1.000=0=0=1,
76.000=37.bmp=1.000=0=0=1,
78.000=38.bmp=1.000=0=0=1,
80.000=39.bmp=1.000=0=0=1,
81.000=40.bmp=1.000=0=0=1,
82.000=41.bmp=1.000=0=0=1,
84.000=42.bmp=1.000=0=0=1,
86.000=43.bmp=1.000=0=0=1,
88.000=44.bmp=1.000=0=0=1,
90.000=45.bmp=1.000=0=0=1,
91.000=46.bmp=1.000=0=0=1,
92.000=47.bmp=1.000=0=0=1,
95.000=48.bmp=1.000=0=0=1,
97.000=49.bmp=1.000=0=0=1,
98.000=50.bmp=1.000=0=0=1,
100.000=51.bmp=1.000=0=0=1,
104.000=52.bmp=1.000=0=0=1,
108.000=53.bmp=1.000=0=0=1,
110.000=54.bmp=1.000=0=0=1,
112.000=55.bmp=1.000=0=0=1,
113.000=56.bmp=1.000=0=0=1,
114.000=57.bmp=1.000=0=0=1,
116.000=58.bmp=1.000=0=0=1,
120.000=59.bmp=1.000=0=0=1,
122.000=60.bmp=1.000=0=0=1,
124.000=61.bmp=1.000=0=0=1,
128.000=62.bmp=1.000=0=0=1,
130.000=63.bmp=1.000=0=0=1,
132.000=The Llama Song-bg.PNG=1.000=0=0=1,
99999=-nosongbg-=1.000=0=0=0 // don't automatically add -songbackground-
;
// cache tags:
#FIRSTBEAT:4.000;
#LASTBEAT:131.000;
#SONGFILENAME:Songs/Music V.I.P ^_^/The Llama Song/deadline.sm;
#HASMUSIC:1;
#HASBANNER:1;
#MUSICLENGTH:40.393;
// end cache tags

//---------------dance-single - ----------------
#NOTES:
     dance-single:
     :
     Hard:
     9:
     0.828,0.689,0.124,0.470,0.025,210.000,5.000,19.000,0.000,0.000:
0000
0000
0000
0000
,
1000
0001
1000
0001
0010
0100
1000
1000
,
0001
0100
0010
0001
0010
1000
0100
0100
,
1000
0001
0100
0100
0001
1000
0100
0100
,
1000
0100
0001
0100
2200
0000
3300
0000
,
0001
0100
0010
1000
0001
0010
0100
0100
,
0010
0001
0100
0010
1000
0001
0010
0010
,
0001
0100
0010
0010
1000
0100
0010
0010
,
0001
0100
0010
1000
2002
0000
3003
0000
,
1000
1000
0100
0010
0001
2000
0000
3000
,
0001
0001
1000
1000
0200
0000
0300
0000
,
0010
0000
0001
0000
0100
0000
0010
0000
1000
0000
0001
0000
1000
0000
0000
1000
,
0100
0000
0000
0010
0000
0001
2000
0000
0000
3000
0000
0000
,
1000
1000
1000
0100
0001
0100
1000
0000
,
0010
0010
0010
0100
0002
0000
0003
0000
,
0010
0010
0010
0001
1000
1000
1000
0000
,
0001
0001
0010
0100
2000
0000
3000
0000
,
0010
0100
0010
0100
1000
0010
0100
0100
,
0001
0010
0100
0100
1000
0010
0100
0100
,
0001
0010
0100
1000
0010
0100
0001
1000
,
0001
0010
0100
1000
2002
0000
3003
0000
,
1000
0001
0010
0001
0100
0010
1000
1000
,
0001
0010
0100
1000
0010
0100
0001
0001
,
0010
0100
1000
1000
0010
0100
0001
0001
,
0010
0001
0100
1000
2200
0000
3300
0000
,
0100
0100
0100
0001
0010
0200
0000
0300
,
1000
1000
0001
0001
2000
0000
3000
0000
,
1000
0100
0001
1000
0010
0001
1000
0000
,
0010
0001
1000
0001
0020
0000
0030
0000
,
0100
0100
0001
1000
0010
0010
0100
0000
,
1000
1000
1000
0010
0002
0000
0003
0000
,
0100
1000
0010
0001
0010
1000
0100
0000
,
1000
0100
0001
0010
2002
0000
3003
0000
;

//---------------dance-single - ----------------
#NOTES:
     dance-single:
     :
     Medium:
     6:
     0.509,0.446,0.000,0.347,0.000,130.000,0.000,14.000,0.000,0.000:
0000
0000
0000
0000
,
1000
0001
1000
0001
,
0100
0010
1000
0001
,
0010
0010
1000
1000
,
1000
0010
0100
0001
2000
0000
3000
0000
,
1000
0001
0100
0010
,
1000
0001
0010
0010
,
0100
1000
0010
0100
,
1000
0100
0010
0001
0020
0000
0030
0000
,
1000
0001
0200
0300
,
0001
1000
0200
0300
,
0010
0001
0100
0010
,
1000
0100
0010
0001
0200
0000
0300
0000
,
0100
0100
1000
0010
,
0100
0001
2000
3000
,
0100
0010
0001
0001
,
1000
0001
0100
0010
2000
0000
3000
0000
,
0001
1000
0001
1000
,
0010
0100
0001
1000
,
0100
0100
0001
0001
,
0001
0100
0010
1000
0002
0000
0003
0000
,
0001
1000
0010
0100
,
0001
1000
0100
0100
,
0010
0001
0100
0010
,
0001
0010
0100
1000
0200
0000
0300
0000
,
0001
1000
0020
0030
,
1000
0001
0020
0030
,
0100
1000
0010
0100
,
0001
0010
0100
1000
0020
0000
0030
0000
,
0010
0010
0001
0100
,
0010
1000
0002
0003
,
0010
0100
1000
1000
,
0001
1000
0010
0100
0002
0000
0003
0000
;

//---------------dance-single - ----------------
#NOTES:
     dance-single:
     :
     Easy:
     4:
     0.410,0.446,0.149,0.347,0.000,96.000,6.000,14.000,0.000,0.000:
0000
0000
0000
0000
,
1000
1000
0100
0100
,
0010
0010
0001
0001
,
0100
0001
1000
0001
,
0010
1000
2002
3003
,
1000
0001
0010
0001
,
0100
0010
1000
0001
,
0010
0100
1000
0100
,
1000
0001
2002
3003
,
0001
0000
1000
0000
,
0100
0000
0010
0000
,
0001
0000
0100
0000
,
0010
1000
0002
0003
,
1000
0000
0001
0000
,
0100
0000
0010
0000
,
1000
0000
0001
0000
,
1000
0100
0220
0330
,
0001
0001
0010
0010
,
0100
0100
1000
1000
,
0010
1000
0001
1000
,
0100
0001
2002
3003
,
0001
1000
0100
1000
,
0010
0100
0001
1000
,
0100
0010
0001
0010
,
0001
1000
2002
3003
,
1000
0000
0001
0000
,
0010
0000
0100
0000
,
1000
0000
0010
0000
,
0100
0001
2000
3000
,
0001
0000
1000
0000
,
0010
0000
0100
0000
,
0001
0000
1000
0000
,
0001
0010
0220
0330
;
